gratifiant > rec.media.* > rec.photo.labo.numerique

valrik (08/11/2011, 19h58)
Bonjour à tous,
quelles sont les caractéristiques optimales d'une vidéo de ce type, sachant
j'ai un fichier "vob" issu du traitement de l'application dvd-slideshow.

Si je fais un ffmpeg -i, j'ai :
Duration: 00:02:46.91, start: 0.133467, bitrate: 4278 kb/s
Stream #0.0[0x1e0]: Video: mpeg2video, yuv420p, 720x480 [PAR 1:1 DAR 3:2], 9000 kb/s, 29.97 fps, 29.97 tbr, 90k tbn, 59.94 tbc
Stream #0.1[0x80]: Audio: ac3, 48000 Hz, 5.1, s16, 192 kb/s

Je voudrais le convertir en un fichier AVI par exemple. Mais les pages
d'aide youtube sont plutôt vagues sur les caractéristiques. Mise à part
la résolution de 640 x 480 en 4:3, je n'ai pas trouvé grand chosesur le
sujet.
Crosspost & Followup-To: fr.rec.photo.labo.numerique
jean-daniel dodin (08/11/2011, 20h40)
Le 08/11/2011 18:58, valrik a écrit :
> Bonjour à tous,
> quelles sont les caractéristiques optimales d'une vidéo de ce type, sachant




jdd
Discussions similaires